Skocz do zawartości

haMac.pl używa cookie. Przeczytaj Privacy Policy aby dowiedzieć się więcej. Aby usunąć tę wiadomość, proszę kliknąć w przycisk po prawej:    Akceptuję użycie cookie

Zdjęcie

Jak przerobić obrazek gif/jpg/png na strumień wideo 1080i 50


  • Zaloguj się, aby dodać odpowiedź
7 odpowiedzi w tym temacie

#1 314TeR

314TeR

    Administrator

  • Administrators
  • 15701 postów
  • LocationWarszawa

Napisano 09 listopad 2016 - 13:49

Potrzebuję przygotować specjalne pliki wideo do kalibracji i weryfikacji tunerów satelitarnych.

 

Potrzebuję zakodować plansze testowe jakie mam w plikach graficzny do strumienia video o określonych parametrach, tak aby był to idealnie tak samo zakodowany mpeg4 1080 i 50Hz jaki spada z satelity.

 

Jest mi ktoś z Was pomóc w zrobieniu takiego materiału testowego? Próbki materiału SAT mogę udostępnić aby zweryfikować jak jest kodowany strumień. 

 

 


ASUS MAXIMUS VII IMPACT | Core i7-4790K | 16GB DDR3 2400 CL10 | GTX 980 Ti | FiiO E10 | OS X Retail via UniBootX Clover

ASUS Z87M-PLUS | Core i5-4590T | 8GB DDR3L 1333 | HD4600 | OS X Retail via UniBootX Cloverbyłe haMac'i: ASUS P5W DH DeluxeASUS P7P55 WS Supercomputer | ASUS P8Z68 Deluxe/GEN3 | ASUS P8Z77-V PRO THUNDERBOLTJak uruchomić na wypasie ALC 882/888/889/1200 | STOP Gigafail | P5W DH Deluxe - perfekcyjny hackintosh | Piszę poprawnie po polsku!

Co daje kalibracja monitora - zobacz jak można poprawić jakość obrazu.

 

Najszybszy hackintosh na świecie za procesorem 12C identyfikujący się jako Mac Pro (Late 2013) wg rankingu Geekbench: 37000 pkt

 

Pomogliśmy Tobie - pomóż nam - przekaż darowiznę na utrzymanie forum.

 


#2 wokie

wokie
  • Members
  • 315 postów

Napisano 09 listopad 2016 - 17:58

Mogę spróbować. Pisz na priv.


10.10.5/10.11.6 HaMac: Intel Core i5-4670K | ASRock Z87 Pro4 rev.C1| 2x8GB DDR3-1600 Crucial Balistic CL9 |SB Audigy2 ZS Gold| PX-128M5Pro |2x ST2000DM001 | iHAS124 |Pioneer BRD-208|Logitech -K750 MAC | BCM 94321MC| Asus R9 270X


#3 Ratio

Ratio
  • Members
  • 85 postów

Napisano 09 listopad 2016 - 18:54

Jakby wokie nie dał rady to Ci to zakoduje ale musipodać dokładne parametry.


Intel I7 4790K , Asus Z97 Pro Gamer, GT 640, Clover, M Audio Project Mix I/O, Focusrite pro 26, ESI ESU 1808, Focusrite Saffire pro 26, Logic Pro X, Final Cut pro X, Motion, Compressor


#4 314TeR

314TeR

    Administrator

  • Administrators
  • 15701 postów
  • LocationWarszawa

Napisano 10 listopad 2016 - 00:06

Tu jest próbka nagrn z trzech różnych kanałów z tego co leci na SAT, z strumienia DVB-S2 HD 1080 - miejmy nadzieję bez modyfikacji przez kooprecosory obrazu - interesujący jest plik *.TS. 

 

https://dl.dropboxus...ideo HD SAT.zip

 

Zależy mi na:

1. Rozkminić jakie faktycznie jest kodowanie z wszystkimi szczegółami, czyli mpeg4 jaki profil czy high, jaki klatkarz, jaki YUV - pewnie 4:2:0, powinien być 1080 50i, czyli 50 półobrazów, poziomy limited... ale czy jest... jednym słowem wszystkie kluczowe aspekty aby późniejszy plik wynikowy można było zakodować z identycznymi parametrami, aby umożliwić jak najwierniejszą symulację odtwarzania strumienia video.

2. Pomóc mi nie tyle zakodować, a najchętniej przygotować np skrypt do ffmpeg czy innego programu abym mógł testową planszę w *.jpg przerobić w np 5 minutowy materiał wideo o parametrach w/w. 

 

Tych plansz na moje oko mogę mieć dobre kilkadziesiąt, podstawowy greyballance oraz saturację. 

 

Plansze testowe są pochodzenia komercyjnego i nie mogę ich nigdzie udostępnić publicznie, ale próbkę prześlę osobą które poproszą w tym wątku lub na PW.

 

Z góry Wam BAAAAARDZO dziękuję i na pewno odwzajemnię się konsultacjami jakbyście potrzebowali wsparcia z strony haMaców. 


ASUS MAXIMUS VII IMPACT | Core i7-4790K | 16GB DDR3 2400 CL10 | GTX 980 Ti | FiiO E10 | OS X Retail via UniBootX Clover

ASUS Z87M-PLUS | Core i5-4590T | 8GB DDR3L 1333 | HD4600 | OS X Retail via UniBootX Cloverbyłe haMac'i: ASUS P5W DH DeluxeASUS P7P55 WS Supercomputer | ASUS P8Z68 Deluxe/GEN3 | ASUS P8Z77-V PRO THUNDERBOLTJak uruchomić na wypasie ALC 882/888/889/1200 | STOP Gigafail | P5W DH Deluxe - perfekcyjny hackintosh | Piszę poprawnie po polsku!

Co daje kalibracja monitora - zobacz jak można poprawić jakość obrazu.

 

Najszybszy hackintosh na świecie za procesorem 12C identyfikujący się jako Mac Pro (Late 2013) wg rankingu Geekbench: 37000 pkt

 

Pomogliśmy Tobie - pomóż nam - przekaż darowiznę na utrzymanie forum.

 


#5 wokie

wokie
  • Members
  • 315 postów

Napisano 10 listopad 2016 - 08:16

Próbki zawierają między innymi te dane. Różnią się między sobą ilością kanałów audio, tetelextu, itp ale przede wszystkim kompresją, gdzie  różnica dochodziła nawet do 100% coś pomiędzy 5000 Kbps a 11000 Kbps wynikająca z nadawanej treści, operatora, wykupionego transpondera, itd. Obrazy kontrolne nie potrzebują tak wysokiego bitrate, zadowolą się na poziomie 60 Kbps.  Pytanie -jak długie czasowo mają być obrazy testowe. I pytanie techniczne - w jaki sposób chcesz podać sygnał testowy na tuner satelitarny.
 
Format : MPEG-TS
File size  : 9.39 MiB
Duration : 11s 774ms
Overall bit rate mode  : Variable
Overall bit rate : 6 318 Kbps


Video
ID : 561 (0x231)
Menu ID  : 3590 (0xE06)
Format : AVC
Format/Info  : Advanced Video Codec
Format profile : Main@L4
Format settings, CABAC : Yes
Format settings, ReFrames  : 4 frames
Codec ID : 27
Duration : 10s 900ms
Bit rate : 5 359 Kbps
Width  : 1 920 pixels
Height : 1 080 pixels
Display aspect ratio : 16:9
Frame rate : 25.000 fps
Color space  : YUV
Chroma subsampling : 4:2:0
Bit depth  : 8 bits
Scan type  : Interlaced
Scan type, store method  : Separated fields
Scan order : Top Field First
Bits/(Pixel*Frame) : 0.103
Stream size  : 6.95 MiB (74%)
Encryption : Encrypted
Color range  : Limited
Color primaries  : BT.709
Transfer characteristics : BT.709
Matrix coefficients  : BT.709

10.10.5/10.11.6 HaMac: Intel Core i5-4670K | ASRock Z87 Pro4 rev.C1| 2x8GB DDR3-1600 Crucial Balistic CL9 |SB Audigy2 ZS Gold| PX-128M5Pro |2x ST2000DM001 | iHAS124 |Pioneer BRD-208|Logitech -K750 MAC | BCM 94321MC| Asus R9 270X


#6 314TeR

314TeR

    Administrator

  • Administrators
  • 15701 postów
  • LocationWarszawa

Napisano 10 listopad 2016 - 11:03

Właśnie nie chcę zmniejszać bitrate ponieważ zależy mi na zbliżeniu odtwarzania testowych nagrań, jako symulacji strumienia SAT. Wolę nawet większy bitrate niż niższy. Dlatego wrzuciłem 3 różne kanały z tego co kajarzę od trzech różnych dostawców, aby porównać bitrate. Docelowo można coś uściślić i z tego co obserwuję to średnio najwyższa jakość to 7-8Mb/s a maxymalny bitrate jaki obserwowałem (piki) to 11-13Mb/s. Większość kanałów i tak ma 4-5Mb/s... aż rodzi się pytanie, WTF... i ile to ma wspólnego z faktyczną jakością Full HD i czy w ogóle można to jeszcze nazwać Full HD, jak masz tak niski bitrate... 

 

Natomiast zależy mi bardzo aby to było 50Hz interlaced a nie 25 progressive. Wiem, że niektóre dekodery obrazu w STB (dekoderze SAT) czy w TV zachowują się totalnie inaczej jak odtwarzają strumień 50i a 25p. Tak samo wiele TV nie radzi sobie jak dostaje sygnał 50i a przy 25p lub 50p jest on "lepiej" wyświetlany, oraz sam STB ewidentnie inaczej świeci jak wypluwa sygnał 50i a inaczej jak wysyła 25p. Dlatego chcę wyłapać co i w którym momencie zmienia obraz tak, że ewidentnie zmieniają się kolory np w menu, czy jest to wina softu i/lub ustawień np rejestrów w STB.

 

Zakodowany strumień aby był dla mnie użyteczny powinien mieć długość około 5 minut / planszę. 1 plansza = 1 plik *.TS.

 

Odtworzenie dla mnie nie stanowi problemu, strumień w TS jest natywnym formatem, skoro nagrał do TS to i odtworzy do. Pozostałe strumienie jak teletext, audio czy naisy DVB są mi zbędne... starczy mi sam *.TS z video. 

 

Jest w ogóle techniczna możliwość abym mógł to sobie sam zakodować? W sensie podpowiecie mi jak i czego użyć, lub jakiej składni użyć w ffmepd czy innym hand brake i bym sobie poprzerabiał pliki jakie potrzebuje. 


ASUS MAXIMUS VII IMPACT | Core i7-4790K | 16GB DDR3 2400 CL10 | GTX 980 Ti | FiiO E10 | OS X Retail via UniBootX Clover

ASUS Z87M-PLUS | Core i5-4590T | 8GB DDR3L 1333 | HD4600 | OS X Retail via UniBootX Cloverbyłe haMac'i: ASUS P5W DH DeluxeASUS P7P55 WS Supercomputer | ASUS P8Z68 Deluxe/GEN3 | ASUS P8Z77-V PRO THUNDERBOLTJak uruchomić na wypasie ALC 882/888/889/1200 | STOP Gigafail | P5W DH Deluxe - perfekcyjny hackintosh | Piszę poprawnie po polsku!

Co daje kalibracja monitora - zobacz jak można poprawić jakość obrazu.

 

Najszybszy hackintosh na świecie za procesorem 12C identyfikujący się jako Mac Pro (Late 2013) wg rankingu Geekbench: 37000 pkt

 

Pomogliśmy Tobie - pomóż nam - przekaż darowiznę na utrzymanie forum.

 


#7 wokie

wokie
  • Members
  • 315 postów

Napisano 10 listopad 2016 - 18:18

Daję próbkę:

 

https://www.dropbox....4/test1.ts?dl=0

 

plik o parametrach:

General
ID : 1 (0x1)
Complete name: /Users/wokie/Desktop/test1.ts
Format : MPEG-TS
File size: 5.82 MiB
Duration : 5mn 0s
Overall bit rate mode: Variable
Overall bit rate : 163 Kbps

Video
ID : 256 (0x100)
Menu ID: 1 (0x1)
Format : AVC
Format/Info: Advanced Video Codec
Format profile : Main@L4
Format settings, CABAC : Yes
Format settings, ReFrames: 4 frames
Codec ID : 27
Duration : 5mn 0s
Bit rate : 155 Kbps
Nominal bit rate : 5 000 Kbps
Width: 1 920 pixels
Height : 1 080 pixels
Display aspect ratio : 16:9
Frame rate : 25.000 fps
Color space: YUV
Chroma subsampling : 4:2:0
Bit depth: 8 bits
Scan type: MBAFF
Scan type, store method: Interleaved fields
Scan order : Top Field First
Bits/(Pixel*Frame) : 0.003
Stream size: 5.54 MiB (95%)
Writing library: x264 core 148 r2638M 7599210
Encoding settings: cabac=1 / ref=3 / deblock=1:-3:-3 / analyse=0x1:0x111 / me=hex / subme=7 / psy=1 / psy_rd=1.00:0.20 / mixed_ref=1 / me_range=16 / chroma_me=1 / trellis=1 / 8x8dct=0 / cqm=0 / deadzone=21,11 / fast_pskip=1 / chroma_qp_offset=-3 / threads=5 / lookahead_threads=1 / sliced_threads=0 / nr=0 / decimate=1 / interlaced=tff / bluray_compat=0 / constrained_intra=0 / bframes=3 / b_pyramid=2 / b_adapt=2 / b_bias=0 / direct=3 / weightb=1 / open_gop=0 / weightp=0 / keyint=250 / keyint_min=25 / scenecut=40 / intra_refresh=0 / rc_lookahead=40 / rc=abr / mbtree=1 / bitrate=5000 / ratetol=1.0 / qcomp=0.60 / qpmin=0 / qpmax=69 / qpstep=4 / ip_ratio=1.40 / aq=1:1.00
Color range: Limited
Color primaries: BT.709
Transfer characteristics : BT.709
Matrix coefficients: BT.709

Menu
ID : 4096 (0x1000)
Menu ID: 1 (0x1)
Duration : 5mn 0s
List : 256 (0x100) (AVC)
Service name : Service01
Service provider : FFmpeg
Service type : digital television

10.10.5/10.11.6 HaMac: Intel Core i5-4670K | ASRock Z87 Pro4 rev.C1| 2x8GB DDR3-1600 Crucial Balistic CL9 |SB Audigy2 ZS Gold| PX-128M5Pro |2x ST2000DM001 | iHAS124 |Pioneer BRD-208|Logitech -K750 MAC | BCM 94321MC| Asus R9 270X


#8 314TeR

314TeR

    Administrator

  • Administrators
  • 15701 postów
  • LocationWarszawa

Napisano 10 listopad 2016 - 23:09

Sprawdziłem... 

 

1. Błędnie jest zakodowana informacja o poziomach video limited/high, specjalnie wybrałem tę planszę, bo po odtworzeniu materiału w TV etc, tło materiału powinno być czarne, ponieważ ma poziom RGB 16.

 

2. Próba odtworzenia w STB powoduje zawieszenie dekodera. 


ASUS MAXIMUS VII IMPACT | Core i7-4790K | 16GB DDR3 2400 CL10 | GTX 980 Ti | FiiO E10 | OS X Retail via UniBootX Clover

ASUS Z87M-PLUS | Core i5-4590T | 8GB DDR3L 1333 | HD4600 | OS X Retail via UniBootX Cloverbyłe haMac'i: ASUS P5W DH DeluxeASUS P7P55 WS Supercomputer | ASUS P8Z68 Deluxe/GEN3 | ASUS P8Z77-V PRO THUNDERBOLTJak uruchomić na wypasie ALC 882/888/889/1200 | STOP Gigafail | P5W DH Deluxe - perfekcyjny hackintosh | Piszę poprawnie po polsku!

Co daje kalibracja monitora - zobacz jak można poprawić jakość obrazu.

 

Najszybszy hackintosh na świecie za procesorem 12C identyfikujący się jako Mac Pro (Late 2013) wg rankingu Geekbench: 37000 pkt

 

Pomogliśmy Tobie - pomóż nam - przekaż darowiznę na utrzymanie forum.

 





Użytkownicy przeglądający ten temat: 0

0 użytkowników, 0 gości, 0 anonimowych